Текущее время: Пт дек 13, 2019 2:41 am

Часовой пояс: UTC + 3 часа [ Летнее время ]




Начать новую тему Ответить на тему  [ Сообщений: 672 ] 
На страницу Пред.  1 ... 4, 5, 6, 7, 8, 9, 10 ... 68  След.

Как вы относитесь к фильму о смешариках?
Положительно, лучше чем сериал 19%  19%  [ 10 ]
Положительно, на одном уровне с сериалом 45%  45%  [ 24 ]
Положительно, но сериал лучше 28%  28%  [ 15 ]
Отрицательно, это хуже сериала 8%  8%  [ 4 ]
Всего голосов : 53
Автор Сообщение
СообщениеДобавлено: Вт дек 14, 2010 10:42 pm 
Не в сети
Аватар пользователя

Зарегистрирован: Вс ноя 07, 2010 11:23 pm
Сообщений: 69
Любимый смешарик: Копатыч
Заслуженная репутация: 14
Voland писал(а):
SuperLuntik писал(а):
На ПузКарапуз залили трейлер. Вот с такими тех.данными:
Качество: HDTVRip-AVC
Формат: MKV
Видео кодек: x264 / MPEG-4 AVC
Аудио кодек: AAC
Видео: 1920x1080 (16:9), 25.000 fps, MPEG-4 AVC ~8142 kbps avg, 0.15 bit/pixel
Аудио [1] (Русский): 48.000 kHz, AAC, 2 ch, ~264.60 kbps avg
Аудио [2] (Английский): 44.100 kHz, AAC, 2 ch, ~128.00 kbps avg
Ссылка на скачивание: http://puzkarapuz.org/184984-smeshariki ... p-avc.html


Официальный трейлер имеет тех. данные:

Video
ID : 1
Format : AVC
Format/Info : Advanced Video Codec
Format profile : Main@L4.2
Format settings, CABAC : Yes
Format settings, ReFrames : 3 frames
Codec ID : avc1
Codec ID/Info : Advanced Video Coding
Duration : 1mn 13s
Bit rate mode : Variable
Bit rate : 24.8 Mbps
Width : 1 920 pixels
Height : 1 080 pixels
Display aspect ratio : 16:9
Frame rate mode : Constant
Frame rate : 25.000 fps
Standard : PAL
Color space : YUV
Chroma subsampling : 4:2:0
Bit depth : 8 bits
Scan type : Progressive
Bits/(Pixel*Frame) : 0.478
Stream size : 218 MiB (99%)

Audio
ID : 2
Format : AAC
Format/Info : Advanced Audio Codec
Format version : Version 4
Format profile : LC
Format settings, SBR : No
Codec ID : 40
Duration : 1mn 14s
Bit rate mode : Variable
Bit rate : 157 Kbps
Maximum bit rate : 243 Kbps
Channel(s) : 2 channels
Channel positions : Front: L R
Sampling rate : 48.0 KHz
Stream size : 1.39 MiB (1%)

А на Пузе лишь его пережатка.


А где можно найти этот трейлер в таком качестве?


Вернуться наверх
 Профиль  
Ответить с цитатой  
СообщениеДобавлено: Вт дек 14, 2010 11:28 pm 
Не в сети
Аватар пользователя

Зарегистрирован: Сб авг 28, 2010 7:15 pm
Сообщений: 34
Любимый смешарик: Кар-Карыч
Заслуженная репутация: 3
SuperLuntik писал(а):
Voland писал(а):
SuperLuntik писал(а):
На ПузКарапуз залили трейлер. Вот с такими тех.данными:
Качество: HDTVRip-AVC
Формат: MKV
Видео кодек: x264 / MPEG-4 AVC
Аудио кодек: AAC
Видео: 1920x1080 (16:9), 25.000 fps, MPEG-4 AVC ~8142 kbps avg, 0.15 bit/pixel
Аудио [1] (Русский): 48.000 kHz, AAC, 2 ch, ~264.60 kbps avg
Аудио [2] (Английский): 44.100 kHz, AAC, 2 ch, ~128.00 kbps avg
Ссылка на скачивание: http://puzkarapuz.org/184984-smeshariki ... p-avc.html


Официальный трейлер имеет тех. данные:

Video
ID : 1
Format : AVC
Format/Info : Advanced Video Codec
Format profile : Main@L4.2
Format settings, CABAC : Yes
Format settings, ReFrames : 3 frames
Codec ID : avc1
Codec ID/Info : Advanced Video Coding
Duration : 1mn 13s
Bit rate mode : Variable
Bit rate : 24.8 Mbps
Width : 1 920 pixels
Height : 1 080 pixels
Display aspect ratio : 16:9
Frame rate mode : Constant
Frame rate : 25.000 fps
Standard : PAL
Color space : YUV
Chroma subsampling : 4:2:0
Bit depth : 8 bits
Scan type : Progressive
Bits/(Pixel*Frame) : 0.478
Stream size : 218 MiB (99%)

Audio
ID : 2
Format : AAC
Format/Info : Advanced Audio Codec
Format version : Version 4
Format profile : LC
Format settings, SBR : No
Codec ID : 40
Duration : 1mn 14s
Bit rate mode : Variable
Bit rate : 157 Kbps
Maximum bit rate : 243 Kbps
Channel(s) : 2 channels
Channel positions : Front: L R
Sampling rate : 48.0 KHz
Stream size : 1.39 MiB (1%)

А на Пузе лишь его пережатка.


А где можно найти этот трейлер в таком качестве?



http://www.youtube.com/watch?v=D-a31Co3abk


Вернуться наверх
 Профиль  
Ответить с цитатой  
СообщениеДобавлено: Ср дек 15, 2010 7:50 am 
Не в сети
Аватар пользователя

Зарегистрирован: Сб окт 09, 2010 3:25 pm
Сообщений: 2911
Любимый смешарик: Крош
Заслуженная репутация: 11
Artyom писал(а):

Другое дело!


Вернуться наверх
 Профиль  
Ответить с цитатой  
СообщениеДобавлено: Чт дек 16, 2010 5:01 pm 
Не в сети
Супермодератор
Аватар пользователя

Зарегистрирован: Чт май 13, 2010 8:23 pm
Сообщений: 9229
Откуда: Екатеринбург
Любимый смешарик: Пин
Заслуженная репутация: 609
ЗнатокЗнатокЗнатокЗнатокЗнатокЗнатокЗнаток
Статья переехала

_________________
Четверг, 18 апреля, 2019 год, 7:26 pm: Было оставлено 100000 сообщение форума!!!


Вернуться наверх
 Профиль  
Ответить с цитатой  
СообщениеДобавлено: Сб янв 15, 2011 12:42 am 
Не в сети
Супермодератор
Аватар пользователя

Зарегистрирован: Пт сен 04, 2009 11:08 pm
Сообщений: 1630
Любимый смешарик: Лосяш
Заслуженная репутация: 178
НачинающийНачинающий
Смешарики Начало Lusien ролик
http://yunonik.ucoz.ru/index/videoroliki_nika1/0-10
Этот ролик я делал в конце 2009г. Он будет использован в полнометражном 3D " Смешарики начало ". Он рабочий и попадёт в фильм в изменённом варианте. Особо горжусь своей находкой цветных треугольников, влетающих в тёмный кадр и вырывающих из мрака силуэт Люсьена(Копатыча)..... Реж Д.Чернов, ведущ О.Шепляков, фоны Ю.Павлов

youtube.com Видео от : youtube.com



Вернуться наверх
 Профиль  
Ответить с цитатой  
СообщениеДобавлено: Сб янв 15, 2011 8:33 am 
Не в сети
Аватар пользователя

Зарегистрирован: Сб окт 09, 2010 3:25 pm
Сообщений: 2911
Любимый смешарик: Крош
Заслуженная репутация: 11
Класс! :shock: :shock: :shock:


Вернуться наверх
 Профиль  
Ответить с цитатой  
СообщениеДобавлено: Сб янв 15, 2011 11:00 am 
Не в сети
Модератор
Аватар пользователя

Зарегистрирован: Вт ноя 03, 2009 12:08 pm
Сообщений: 4549
Откуда: Харьков
Любимый смешарик: Пин
Заслуженная репутация: -5
*забрал себе*


Вернуться наверх
 Профиль  
Ответить с цитатой  
СообщениеДобавлено: Вс янв 16, 2011 12:15 am 
Не в сети
Аватар пользователя

Зарегистрирован: Сб янв 08, 2011 11:18 pm
Сообщений: 1679
Откуда: Moscow
Любимый смешарик: Бараш
Заслуженная репутация: 1
очень хочется посмотреть*

_________________
Время от времени хорошо сделать паузу в своем стремлении к счастью и просто быть счастливым.
Когда летишь с моста, понимаешь, что все твои проблемы решаемы. Кроме одной. Ты уже летишь с моста.


Вернуться наверх
 Профиль  
Ответить с цитатой  
СообщениеДобавлено: Вс янв 16, 2011 7:48 am 
Не в сети
Аватар пользователя

Зарегистрирован: Сб окт 09, 2010 3:25 pm
Сообщений: 2911
Любимый смешарик: Крош
Заслуженная репутация: 11
Очень, очень, очень, очень сильно хочется посмотреть!!!


Вернуться наверх
 Профиль  
Ответить с цитатой  
СообщениеДобавлено: Вс янв 16, 2011 9:25 pm 
Не в сети
Супермодератор
Аватар пользователя

Зарегистрирован: Чт май 13, 2010 8:23 pm
Сообщений: 9229
Откуда: Екатеринбург
Любимый смешарик: Пин
Заслуженная репутация: 609
ЗнатокЗнатокЗнатокЗнатокЗнатокЗнатокЗнаток
а ведь этот вариант 2д Люсьена куда лучше смотрится чем 3д
поэтому я меняю свой голос в опросе

_________________
Четверг, 18 апреля, 2019 год, 7:26 pm: Было оставлено 100000 сообщение форума!!!


Вернуться наверх
 Профиль  
Ответить с цитатой  
Показать сообщения за:  Сортировать по:  
Начать новую тему Ответить на тему  [ Сообщений: 672 ] 
На страницу Пред.  1 ... 4, 5, 6, 7, 8, 9, 10 ... 68  След.

Часовой пояс: UTC + 3 часа [ Летнее время ]


Кто сейчас на форуме

Сейчас этот форум просматривают: нет зарегистрированных пользователей и гости: 3


Вы не можете начинать темы
Вы не можете отвечать на сообщения
Вы не можете редактировать свои сообщения
Вы не можете удалять свои сообщения

Найти:
Перейти:  
Powered by phpBB © 2000, 2002, 2005, 2007 phpBB Group