Форум фан-клуба "Мир Смешариков"
http://smeshariki-mir.ru/forum/

Смешарики. Начало
http://smeshariki-mir.ru/forum/viewtopic.php?f=38&t=1160
Страница 7 из 68

Автор:  SuperLuntik [ Вт дек 14, 2010 10:42 pm ]
Заголовок сообщения:  Re: Смешарики.начало(долгая дорога домой)

Voland писал(а):
SuperLuntik писал(а):
На ПузКарапуз залили трейлер. Вот с такими тех.данными:
Качество: HDTVRip-AVC
Формат: MKV
Видео кодек: x264 / MPEG-4 AVC
Аудио кодек: AAC
Видео: 1920x1080 (16:9), 25.000 fps, MPEG-4 AVC ~8142 kbps avg, 0.15 bit/pixel
Аудио [1] (Русский): 48.000 kHz, AAC, 2 ch, ~264.60 kbps avg
Аудио [2] (Английский): 44.100 kHz, AAC, 2 ch, ~128.00 kbps avg
Ссылка на скачивание: http://puzkarapuz.org/184984-smeshariki ... p-avc.html


Официальный трейлер имеет тех. данные:

Video
ID : 1
Format : AVC
Format/Info : Advanced Video Codec
Format profile : Main@L4.2
Format settings, CABAC : Yes
Format settings, ReFrames : 3 frames
Codec ID : avc1
Codec ID/Info : Advanced Video Coding
Duration : 1mn 13s
Bit rate mode : Variable
Bit rate : 24.8 Mbps
Width : 1 920 pixels
Height : 1 080 pixels
Display aspect ratio : 16:9
Frame rate mode : Constant
Frame rate : 25.000 fps
Standard : PAL
Color space : YUV
Chroma subsampling : 4:2:0
Bit depth : 8 bits
Scan type : Progressive
Bits/(Pixel*Frame) : 0.478
Stream size : 218 MiB (99%)

Audio
ID : 2
Format : AAC
Format/Info : Advanced Audio Codec
Format version : Version 4
Format profile : LC
Format settings, SBR : No
Codec ID : 40
Duration : 1mn 14s
Bit rate mode : Variable
Bit rate : 157 Kbps
Maximum bit rate : 243 Kbps
Channel(s) : 2 channels
Channel positions : Front: L R
Sampling rate : 48.0 KHz
Stream size : 1.39 MiB (1%)

А на Пузе лишь его пережатка.


А где можно найти этот трейлер в таком качестве?

Автор:  simpson95 [ Вт дек 14, 2010 11:28 pm ]
Заголовок сообщения:  Re: Смешарики.начало(долгая дорога домой)

SuperLuntik писал(а):
Voland писал(а):
SuperLuntik писал(а):
На ПузКарапуз залили трейлер. Вот с такими тех.данными:
Качество: HDTVRip-AVC
Формат: MKV
Видео кодек: x264 / MPEG-4 AVC
Аудио кодек: AAC
Видео: 1920x1080 (16:9), 25.000 fps, MPEG-4 AVC ~8142 kbps avg, 0.15 bit/pixel
Аудио [1] (Русский): 48.000 kHz, AAC, 2 ch, ~264.60 kbps avg
Аудио [2] (Английский): 44.100 kHz, AAC, 2 ch, ~128.00 kbps avg
Ссылка на скачивание: http://puzkarapuz.org/184984-smeshariki ... p-avc.html


Официальный трейлер имеет тех. данные:

Video
ID : 1
Format : AVC
Format/Info : Advanced Video Codec
Format profile : Main@L4.2
Format settings, CABAC : Yes
Format settings, ReFrames : 3 frames
Codec ID : avc1
Codec ID/Info : Advanced Video Coding
Duration : 1mn 13s
Bit rate mode : Variable
Bit rate : 24.8 Mbps
Width : 1 920 pixels
Height : 1 080 pixels
Display aspect ratio : 16:9
Frame rate mode : Constant
Frame rate : 25.000 fps
Standard : PAL
Color space : YUV
Chroma subsampling : 4:2:0
Bit depth : 8 bits
Scan type : Progressive
Bits/(Pixel*Frame) : 0.478
Stream size : 218 MiB (99%)

Audio
ID : 2
Format : AAC
Format/Info : Advanced Audio Codec
Format version : Version 4
Format profile : LC
Format settings, SBR : No
Codec ID : 40
Duration : 1mn 14s
Bit rate mode : Variable
Bit rate : 157 Kbps
Maximum bit rate : 243 Kbps
Channel(s) : 2 channels
Channel positions : Front: L R
Sampling rate : 48.0 KHz
Stream size : 1.39 MiB (1%)

А на Пузе лишь его пережатка.


А где можно найти этот трейлер в таком качестве?



http://www.youtube.com/watch?v=D-a31Co3abk

Автор:  GUNYA [ Ср дек 15, 2010 7:50 am ]
Заголовок сообщения:  Re: Смешарики.начало(долгая дорога домой)

Artyom писал(а):

Другое дело!

Автор:  Artyom [ Чт дек 16, 2010 5:01 pm ]
Заголовок сообщения:  Re: Смешарики.начало(долгая дорога домой)

Статья переехала

Автор:  Prof1 [ Сб янв 15, 2011 12:42 am ]
Заголовок сообщения:  Re: Смешарики.начало(долгая дорога домой)

Смешарики Начало Lusien ролик
http://yunonik.ucoz.ru/index/videoroliki_nika1/0-10
Этот ролик я делал в конце 2009г. Он будет использован в полнометражном 3D " Смешарики начало ". Он рабочий и попадёт в фильм в изменённом варианте. Особо горжусь своей находкой цветных треугольников, влетающих в тёмный кадр и вырывающих из мрака силуэт Люсьена(Копатыча)..... Реж Д.Чернов, ведущ О.Шепляков, фоны Ю.Павлов

youtube.com Видео от : youtube.com


Автор:  GUNYA [ Сб янв 15, 2011 8:33 am ]
Заголовок сообщения:  Re: Смешарики.начало(долгая дорога домой)

Класс! :shock: :shock: :shock:

Автор:  danil [ Сб янв 15, 2011 11:00 am ]
Заголовок сообщения:  Re: Смешарики.начало(долгая дорога домой)

*забрал себе*

Автор:  Olik_Lulik [ Вс янв 16, 2011 12:15 am ]
Заголовок сообщения:  Re: Смешарики.начало(долгая дорога домой)

очень хочется посмотреть*

Автор:  GUNYA [ Вс янв 16, 2011 7:48 am ]
Заголовок сообщения:  Re: Смешарики.начало(долгая дорога домой)

Очень, очень, очень, очень сильно хочется посмотреть!!!

Автор:  Artyom [ Вс янв 16, 2011 9:25 pm ]
Заголовок сообщения:  Re: Смешарики.начало(долгая дорога домой)

а ведь этот вариант 2д Люсьена куда лучше смотрится чем 3д
поэтому я меняю свой голос в опросе

Страница 7 из 68 Часовой пояс: UTC + 3 часа [ Летнее время ]
Powered by phpBB® Forum Software © phpBB Group
https://www.phpbb.com/